3bbv fltr qo6i ecb7 51hx bjjf 20k8 sjj6 uopz gm40
> 平井坚<Ken Hirai Singles Best Collection 爱歌成痴2>单曲精选3CD+蓝光MV集合2006-2017【22.5G】1080P蓝光原盘
歌 手 : 平井坚
主音唯一码 : lgych-00403
视频大小 : 22.5G主音网微信 : tao18074625335
创建时间 : 2018-09-20主音网QQ客服 :2268809533
视频目录 : 蓝光演唱会
主音网邮箱 :bimuyu#zhuyin.com(请把#改成@)
主音唯一码
lgych-00403
文件大小
22.5G
百度网盘下载
提取码
lk7h
文件解压密码
平井坚<Ken Hirai Singles Best Collection 爱歌成痴2>单曲精选3CD+蓝光MV集合2006-2017【22.5G】1080P蓝光原盘 视频截图














平井坚<Ken Hirai Singles Best Collection 爱歌成痴2>单曲精选3CD+蓝光MV集合2006-2017【22.5G】1080P蓝光原盘 视频剧情截图
平井坚<Ken Hirai Singles Best Collection 爱歌成痴2>单曲精选3CD+蓝光MV集合2006-2017【22.5G】1080P蓝光原盘 演唱会曲目介绍
平井坚 Ken Hirai Singles Best Collection 爱歌成痴2 单曲精选3CD+蓝光MV集合2006-2017【22.5G】1080P蓝光原盘

曲目

Music Video Collection of Singles 2006-2017

01. バイマイメロディー
02. 哀歌(エレジー)
03. 君の好きなとこ
04. fake star
05. キャンバス
06. 君はス?テ?キ
07. いつか離れる日が来ても
08. CANDY
09. 僕は君に恋をする
10. Sing Forever
11. アイシテル
12. いとしき日々よ
13. 告白
14. 桔梗が丘
15.グロテスク feat. 安室奈美恵
16. ソレデモシタイ
17. 君の鼓動は君にしか鳴らせない
18. Plus One
19. 魔法って言っていいかな?
20. 僕の心をつくってよ
21.ノンフィクション 
主音唯一码
lgych-00403
文件大小
22.5G
百度网盘下载
提取码
lk7h
文件解压密码
平井坚<Ken Hirai Singles Best Collection 爱歌成痴2>单曲精选3CD+蓝光MV集合2006-2017【22.5G】1080P蓝光原盘 演唱会视频参数信息
演唱会参数信息

DISC INFO:

Disc Title:     lgych-00403 平井坚 Ken Hirai Singles Best Collection 爱歌成痴2 单曲精选3CD+蓝光MV集合2006-2017【22.5G】1080P蓝光原盘
Disc Size:      24,164,601,170 bytes
Protection:     AACS
BD-Java:        No
BDInfo:         0.5.8

PLAYLIST REPORT:

Name:                   00000.MPLS
Length:                 1:42:45.625 (h:m:s.ms)
Size:                   0 bytes
Total Bitrate:          0.00 Mbps

VIDEO:

Codec                   Bitrate             Description     
-----                   -------             -----------     
MPEG-4 AVC Video        0 kbps              1080i / 29.970 fps / 16:9 / High Profile 4.1

AUDIO:

Codec                           Language        Bitrate         Description     
-----                           --------        -------         -----------     
LPCM Audio                      Japanese        4608 kbps       2.0 / 96 kHz / 4608 kbps / 24-bit

FILES:

Name            Time In         Length          Size            Total Bitrate   
----            -------         ------          ----            -------------   
00000.M2TS      0:00:00.000     0:05:24.223     0               0               
00001.M2TS      0:05:24.223     0:05:29.629     0               0               
00002.M2TS      0:10:53.853     0:05:37.737     0               0               
00003.M2TS      0:16:31.590     0:03:46.726     0               0               
为您推荐 平井坚 相关的演唱会视频
主音唯一码
lgych-00403
文件大小
22.5G
百度网盘下载
提取码
lk7h
文件解压密码
最新天气预报 ℃